<?xml version="1.0" standalone="no"?>
<!DOCTYPE svg PUBLIC "-//W3C//DTD SVG 1.1//EN" "http://www.w3.org/Graphics/SVG/1.1/DTD/svg11.dtd">
<svg xmlns="http://www.w3.org/2000/svg">
<defs >
<font id="Poppins" horiz-adv-x="883" ><font-face
    font-family="Poppins"
    units-per-em="1000"
    panose-1="0 0 8 0 0 0 0 0 0 0"
    ascent="1050"
    descent="-350"
    alphabetic="0" />
<glyph unicode=" " glyph-name="space" horiz-adv-x="200" />
<glyph unicode="!" glyph-name="exclam" horiz-adv-x="382" d="M293 742L272 253H127L106 742H293ZM289 171V0H111V171H289Z" />
<glyph unicode="&quot;" glyph-name="quotedbl" horiz-adv-x="417" d="M183 801L171 580H56L44 801H183ZM373 801L361 580H246L234 801H373Z" />
<glyph unicode="#" glyph-name="numbersign" horiz-adv-x="886" d="M709 432L683 311H805V155H650L617 0H457L490 155H323L290 0H131L164 155H18V311H197L223 432H81V588H257L289 740H448L416 588H583L615 740H775L743 588H868V432H709ZM549 432H382L356 311H523L549
432Z" />
<glyph unicode="$" glyph-name="dollar" horiz-adv-x="633" d="M597 143T567 96T478 21T336 -7V-87H293V-5Q184 4 116 61T40 213H222Q225 181 243 159T293 129V288Q276 293 271 295Q198 316 152 337T72 401T38 514Q38 575 71 621T163 691T293 718V800H336V717Q446
710 511 655T584 508H399Q395 538 379 557T336 583V427L367 417Q440 394 485 373T564 309T597 199Q597 143 567 96ZM221 494T239 476T293 442V587Q259 585 240 568T221 521Q221 494 239 476ZM372 125T393 144T414 195Q414 223 394 241T336 274V124Q372 125 393
144Z" />
<glyph unicode="%" glyph-name="percent" horiz-adv-x="804" d="M266 719T312 675T359 551Q359 471 313 427T193 383Q118 383 72 427T25 551Q25 631 71 675T193 719Q266 719 312 675ZM678 709L292 0H127L513 709H678ZM139 520T153 503T191 485Q216 485 231 502T246
551Q246 582 231 599T191 617Q167 617 153 600T139 551Q139 520 153 503ZM687 327T733 283T779 159Q779 79 733 35T613 -10Q540 -10 494 34T447 159Q447 239 493 283T613 327Q687 327 733 283ZM560 127T574 110T613 92Q637 92 651 109T666 159Q666 190 652 207T613
225Q588 225 574 208T560 159Q560 127 574 110Z" />
<glyph unicode="&amp;" glyph-name="ampersand" horiz-adv-x="693" d="M519 0L437 99Q427 83 420 74Q398 37 356 15T257 -7Q186 -7 135 22T56 100T29 212Q29 299 75 354T193 419L181 439Q165 464 157 489T149 544Q149 589 173 628T243 690T355 714Q446 714 496
676T564 575Q578 531 575 478H416Q416 495 414 515Q411 572 358 572Q336 572 323 559T309 526Q309 509 316 495T341 458L691 0H519ZM294 135T316 157T339 213Q339 248 314 271T254 294Q219 294 198 274T176 217Q176 180 199 158T259 135Q294 135 316 157Z" />
<glyph unicode="&apos;" glyph-name="quotesingle" horiz-adv-x="229" d="M185 801L172 580H57L44 801H185Z" />
<glyph unicode="(" glyph-name="parenleft" horiz-adv-x="411" d="M26 593T100 745T298 992H463V975Q325 861 258 719T190 402Q190 56 463 -171V-187H298Q175 -93 101 59T26 402Q26 593 100 745Z" />
<glyph unicode=")" glyph-name="parenright" horiz-adv-x="413" d="M388 212T313 60T116 -187H-51V-171Q223 56 223 402Q223 576 155 718T-51 975V992H116Q238 897 313 745T388 403Q388 212 313 60Z" />
<glyph unicode="*" glyph-name="asterisk" horiz-adv-x="528" d="M406 695L463 593L339 550L463 509L402 403L303 491L328 360H211L235 491L136 401L73 509L196 552L75 593L132 695L235 609L209 740H328L303 609L406 695Z" />
<glyph unicode="+" glyph-name="plus" horiz-adv-x="561" d="M536 271H363V95H198V271H25V428H198V605H363V428H536V271Z" />
<glyph unicode="," glyph-name="comma" horiz-adv-x="237" d="M199 48T199 -20Q199 -89 163 -134T49 -179V-116Q76 -116 88 -104T101 -58V-48H28V106H169Q199 48 199 -20Z" />
<glyph unicode="-" glyph-name="hyphen" horiz-adv-x="543" d="M703 422V280H262V422H703Z" />
<glyph unicode="." glyph-name="period" horiz-adv-x="236" d="M206 171V0H29V171H206Z" />
<glyph unicode="/" glyph-name="slash" horiz-adv-x="389" d="M414 950L145 -188H-20L249 950H414Z" />
<glyph unicode="0" glyph-name="zero" horiz-adv-x="644" d="M42 195T109 98T323 1Q469 1 536 98T604 361Q604 526 537 622T323 719Q176 719 109 623T42 361Q42 195 109 98ZM434 266T412 215T323 163Q256 163 233 214T210 361Q210 455 233 506T323 557Q389 557
411 507T434 361Q434 266 412 215Z" />
<glyph unicode="1" glyph-name="one" horiz-adv-x="356" d="M11 547V707H297V0H117V547H11Z" />
<glyph unicode="2" glyph-name="two" horiz-adv-x="566" d="M352 363T352 497Q352 579 281 579Q241 579 223 551T202 464H35Q41 593 113 658T295 723Q410 723 468 665T527 514Q527 411 448 313T259 146H538V8H34V136Q352 363 352 497Z" />
<glyph unicode="3" glyph-name="three" horiz-adv-x="605" d="M376 738T429 713T509 643T537 542Q537 473 502 431T413 378V373Q550 329 550 202Q550 141 522 94T441 20T312 -7Q190 -7 119 53T41 236H208Q210 189 234 162T304 135Q341 135 362 157T384 214Q384
301 258 301H226V440H257Q370 438 370 521Q370 557 351 576T298 596Q262 596 241 572T217 506H50Q55 618 120 678T302 738Q376 738 429 713Z" />
<glyph unicode="4" glyph-name="four" horiz-adv-x="672" d="M44 130V273L367 716H551V279H636V130H551V0H378V130H44ZM392 518L218 279H392V518Z" />
<glyph unicode="5" glyph-name="five" horiz-adv-x="643" d="M564 574H246V431Q267 455 304 468T386 482Q457 482 505 451T576 366T599 249Q599 133 534 66T351 -2Q271 -2 212 26T121 106T87 224H254Q259 190 281 168T343 146Q388 146 410 175T433 252Q433 298
409 323T342 348Q309 348 287 334T257 296H91V724H564V574Z" />
<glyph unicode="6" glyph-name="six" horiz-adv-x="628" d="M393 555T373 577T314 599Q256 599 232 546T209 381Q226 422 267 445T364 469Q464 469 522 409T580 235Q580 164 551 109T466 24T330 -7Q175 -7 116 89T57 355Q57 551 120 643T325 736Q437 736 495 673T560
512H400Q393 555 373 577ZM222 197T248 169T324 140Q369 140 394 165T420 238Q420 286 394 311T323 337Q280 337 251 313T222 243Q222 197 248 169Z" />
<glyph unicode="7" glyph-name="seven" horiz-adv-x="510" d="M492 587L239 0H62L318 567H18V714H492V587Z" />
<glyph unicode="8" glyph-name="eight" horiz-adv-x="645" d="M67 599T96 644T182 717T322 745Q405 745 462 717T548 644T577 548Q577 492 551 453T475 392Q594 339 594 213Q594 141 558 90T461 12T322 -15Q246 -15 184 11T86 89T50 213Q50 339 169 392Q119 413
93 452T67 548Q67 599 96 644ZM235 478T258 457T322 435Q362 435 385 456T409 519Q409 559 385 582T322 605Q283 605 259 582T235 519Q235 478 258 457ZM216 178T244 152T322 126Q371 126 399 152T428 223Q428 268 399 293T322 319Q275 319 246 294T216 223Q216
178 244 152Z" />
<glyph unicode="9" glyph-name="nine" horiz-adv-x="601" d="M232 130T306 130Q364 130 387 183T409 348Q392 307 351 284T254 260Q154 260 96 320T38 494Q38 565 67 620T152 705T288 736Q395 736 455 691T538 569T561 382Q561 190 503 92T306 -7Q230 -7 176 23T92
105T58 217H218Q232 130 306 130ZM396 532T370 560T294 589Q249 589 224 564T198 491Q198 443 224 418T295 392Q338 392 367 416T396 486Q396 532 370 560Z" />
<glyph unicode=":" glyph-name="colon" horiz-adv-x="277" d="M232 578V407H54V578H232ZM232 171V0H54V171H232Z" />
<glyph unicode=";" glyph-name="semicolon" horiz-adv-x="360" d="M276 571V400H99V571H276ZM278 48T278 -20Q278 -89 242 -134T128 -179V-116Q155 -116 167 -104T180 -58V-48H107V106H248Q278 48 278 -20Z" />
<glyph unicode="&lt;" glyph-name="less" horiz-adv-x="468" d="M229 130L25 350L229 572H443L239 350L443 130H229Z" />
<glyph unicode="=" glyph-name="equal" horiz-adv-x="611" d="M586 555V399H25V555H586ZM586 300V145H25V300H586Z" />
<glyph unicode="&gt;" glyph-name="greater" horiz-adv-x="468" d="M25 572H239L443 350L239 130H25L229 350L25 572Z" />
<glyph unicode="?" glyph-name="question" horiz-adv-x="524" d="M373 758T436 704T499 547Q499 452 438 398T273 342V253H112V452H179Q251 452 291 472T331 546Q331 580 312 599T261 618Q225 618 205 597T184 542H23Q21 602 48 651T132 729T267 758Q373 758 436
704ZM282 171V0H104V171H282Z" />
<glyph unicode="@" glyph-name="at" horiz-adv-x="1271" d="M871 822T991 768T1176 609T1242 356Q1242 256 1199 173T1084 41T931 -8Q860 -8 814 23T758 120Q725 58 676 25T554 -8Q493 -8 446 21T372 104T345 228Q345 241 347 267Q354 353 398 420T514 526T672
564Q781 564 847 508T914 350Q914 331 911 310L898 217Q896 199 896 193Q896 165 907 154T943 142Q975 142 1003 165T1050 236T1068 350Q1068 450 1024 525T892 641T681 682Q532 682 426 622T266 460T211 229Q211 57 314 -39T625 -135L593 -274Q416 -272 294 -211T108
-38T45 229Q45 410 134 544T375 750T708 822Q871 822 991 768ZM748 361T718 388T642 415Q608 415 578 398T529 344T510 253Q510 198 540 170T614 142Q648 142 678 159T728 214T748 306Q748 361 718 388Z" />
<glyph unicode="A" glyph-name="A" horiz-adv-x="730" d="M497 129H232L188 0H8L267 702H464L723 0H541L497 129ZM453 259L365 519L276 259H453Z" />
<glyph unicode="B" glyph-name="B" horiz-adv-x="653" d="M547 349T584 302T622 193Q622 102 562 51T388 0H59V707H380Q488 707 547 660T606 526Q606 462 572 420T483 364Q547 349 584 302ZM230 418H342Q431 418 431 494Q431 570 340 570H230V418ZM447 139T447
217Q447 255 422 276T351 298H230V139H352Q447 139 447 217Z" />
<glyph unicode="C" glyph-name="C" horiz-adv-x="757" d="M517 714T605 643T720 451H539Q519 500 478 528T379 556Q304 556 258 501T212 354Q212 262 258 208T379 153Q436 153 477 181T539 257H720Q694 137 606 66T382 -6Q279 -6 201 39T81 167T38 354Q38 459
80 541T201 668T382 714Q517 714 605 643Z" />
<glyph unicode="D" glyph-name="D" horiz-adv-x="733" d="M695 251T651 171T523 45T326 0H59V707H326Q440 707 523 663T650 539T695 355Q695 251 651 171ZM411 153T466 206T522 355Q522 451 467 504T311 557H230V153H311Q411 153 466 206Z" />
<glyph unicode="E" glyph-name="E" horiz-adv-x="537" d="M230 571V423H469V294H230V137H499V0H59V707H499V571H230Z" />
<glyph unicode="F" glyph-name="F" horiz-adv-x="549" d="M520 707V571H230V416H454V286H230V0H59V707H520Z" />
<glyph unicode="G" glyph-name="G" horiz-adv-x="762" d="M523 714T609 649T716 473H535Q517 511 480 533T391 556Q310 556 261 502T212 354Q212 253 263 199T410 145Q471 145 517 178T582 274H366V397H725V228Q705 166 661 113T549 27T392 -6Q285 -6 205 39T82
167T38 354Q38 459 81 541T204 668T390 714Q523 714 609 649Z" />
<glyph unicode="H" glyph-name="H" horiz-adv-x="729" d="M670 707V0H498V295H230V0H59V707H230V433H498V707H670Z" />
<glyph unicode="I" glyph-name="I" horiz-adv-x="289" d="M230 707V0H59V707H230Z" />
<glyph unicode="J" glyph-name="J" horiz-adv-x="549" d="M495 707V224Q495 113 435 53T267 -7Q151 -7 83 58T15 247H184Q184 148 259 148Q324 148 324 224V707H495Z" />
<glyph unicode="K" glyph-name="K" horiz-adv-x="690" d="M392 361L677 0H470L230 317V0H59V707H230V396L472 707H677L392 361Z" />
<glyph unicode="L" glyph-name="L" horiz-adv-x="478" d="M230 131H458V0H59V707H230V131Z" />
<glyph unicode="M" glyph-name="M" horiz-adv-x="913" d="M854 702V0H683V439L531 0H383L230 440V0H59V702H268L459 213L646 702H854Z" />
<glyph unicode="N" glyph-name="N" horiz-adv-x="746" d="M687 0H516L230 434V0H59V707H230L516 269V707H687V0Z" />
<glyph unicode="O" glyph-name="O" horiz-adv-x="789" d="M495 718T576 672T705 543T752 356Q752 252 705 169T576 40T395 -7Q296 -7 215 39T86 169T38 356Q38 460 85 542T214 671T395 718Q495 718 576 672ZM311 559T262 505T212 356Q212 263 261 208T395 153Q478
153 528 208T578 356Q578 449 529 504T395 559Q311 559 262 505Z" />
<glyph unicode="P" glyph-name="P" horiz-adv-x="619" d="M230 248V0H59V707H336Q462 707 528 645T594 476Q594 410 565 359T477 278T336 248H230ZM420 385T420 476Q420 569 317 569H230V385H317Q420 385 420 476Z" />
<glyph unicode="Q" glyph-name="Q" horiz-adv-x="789" d="M564 -124L472 1Q432 -7 395 -7Q296 -7 215 39T86 169T38 356Q38 460 85 542T214 671T395 718Q495 718 576 672T705 543T752 356Q752 264 715 188T611 63L769 -124H564ZM212 263T261 208T395 153Q478 153
528 208T578 356Q578 449 529 504T395 559Q311 559 262 505T212 356Q212 263 261 208Z" />
<glyph unicode="R" glyph-name="R" horiz-adv-x="636" d="M422 0L269 267H230V0H59V707H351Q435 707 493 678T580 599T609 483Q609 406 567 352T443 278L611 0H422ZM230 384H336Q387 384 411 406T435 473Q435 515 411 539T336 563H230V384Z" />
<glyph unicode="S" glyph-name="S" horiz-adv-x="603" d="M567 143T539 96T455 21T320 -7Q201 -7 124 51T40 213H222Q226 173 250 150T313 127Q346 127 365 145T384 193Q384 220 367 238T323 267T251 295Q184 318 142 339T69 403T38 514Q38 577 70 623T158 693T288
718Q406 718 475 662T554 508H369Q364 543 344 563T288 584Q258 584 240 568T221 521Q221 496 237 479T279 450T351 422Q419 399 462 377T536 311T567 199Q567 143 539 96Z" />
<glyph unicode="T" glyph-name="T" horiz-adv-x="580" d="M567 707V571H375V0H203V571H13V707H567Z" />
<glyph unicode="U" glyph-name="U" horiz-adv-x="697" d="M225 707V299Q225 229 256 192T348 155Q408 155 439 192T471 299V707H642V299Q642 199 603 131T497 28T344 -7Q259 -7 194 27T92 130T55 299V707H225Z" />
<glyph unicode="V" glyph-name="V" horiz-adv-x="727" d="M191 707L364 175L537 707H720L474 0H253L8 707H191Z" />
<glyph unicode="W" glyph-name="W" horiz-adv-x="1051" d="M1020 707L851 0H639L526 473L412 0H200L31 707H217L308 195L432 707H619L743 195L835 707H1020Z" />
<glyph unicode="X" glyph-name="X" horiz-adv-x="698" d="M488 0L339 220L211 0H15L241 364L8 707H211L356 494L481 707H676L453 351L691 0H488Z" />
<glyph unicode="Y" glyph-name="Y" horiz-adv-x="677" d="M670 707L425 235V0H253V235L8 707H204L340 419L476 707H670Z" />
<glyph unicode="Z" glyph-name="Z" horiz-adv-x="594" d="M236 138H548V0H46V130L353 570H50V707H546V577L236 138Z" />
<glyph unicode="[" glyph-name="bracketleft" horiz-adv-x="455" d="M403 950V812H254V-50H403V-188H93V950H403Z" />
<glyph unicode="\" glyph-name="backslash" horiz-adv-x="777" d="M426 -188L158 950H322L590 -188H426Z" />
<glyph unicode="]" glyph-name="bracketright" horiz-adv-x="452" d="M51 -188V-50H200V812H51V950H361V-188H51Z" />
<glyph unicode="^" glyph-name="asciicircum" horiz-adv-x="707" d="M199 165H29L271 704H437L678 165H508L354 508L199 165Z" />
<glyph unicode="_" glyph-name="underscore" horiz-adv-x="706" d="M666 -39V-206H47V-39H666Z" />
<glyph unicode="`" glyph-name="grave" horiz-adv-x="310" d="M259 714V598L18 701V830L259 714Z" />
<glyph unicode="a" glyph-name="a" horiz-adv-x="678" d="M335 565T381 536T449 457V558H619V0H449V101Q427 51 381 22T271 -7Q202 -7 148 27T62 127T30 279Q30 367 61 431T147 530T271 565Q335 565 381 536ZM271 415T238 379T204 279Q204 215 237 179T326 143Q380
143 414 180T449 279Q449 342 415 378T326 415Q271 415 238 379Z" />
<glyph unicode="b" glyph-name="b" horiz-adv-x="678" d="M476 565T530 531T616 432T648 279Q648 192 617 127T531 28T407 -7Q343 -7 297 22T230 101V0H59V740H230V457Q251 507 297 536T407 565Q476 565 530 531ZM298 415T264 379T229 279Q229 217 263 180T352
143Q407 143 440 179T474 279Q474 343 441 379T352 415Q298 415 264 379Z" />
<glyph unicode="c" glyph-name="c" horiz-adv-x="614" d="M419 565T492 506T584 342H403Q395 378 370 398T307 418Q262 418 233 383T204 279Q204 211 233 176T307 140Q345 140 370 160T403 216H584Q565 112 492 53T311 -7Q229 -7 166 27T66 127T30 279Q30 367
65 431T165 530T311 565Q419 565 492 506Z" />
<glyph unicode="d" glyph-name="d" horiz-adv-x="678" d="M335 565T381 536T448 457V740H619V0H448V101Q427 51 381 22T271 -7Q202 -7 148 27T62 127T30 279Q30 367 61 431T147 530T271 565Q335 565 381 536ZM271 415T238 379T204 279Q204 215 237 179T326 143Q380
143 414 180T449 279Q449 342 415 378T326 415Q271 415 238 379Z" />
<glyph unicode="e" glyph-name="e" horiz-adv-x="619" d="M589 273T584 248H197Q200 185 229 158T303 130Q341 130 366 149T399 198H580Q569 139 532 93T438 20T311 -7Q229 -7 166 27T66 127T30 279Q30 367 65 431T165 530T311 565Q394 565 457 531T554 436T589
294Q589 273 584 248ZM417 375T387 402T311 430Q264 430 233 402T198 320H416Q417 375 387 402Z" />
<glyph unicode="f" glyph-name="f" horiz-adv-x="368" d="M333 634Q291 634 272 616T251 558H352V414H251V0H80V414H13V558H80V564Q80 668 140 724T316 781Q340 781 352 780V633L333 634Z" />
<glyph unicode="g" glyph-name="g" horiz-adv-x="678" d="M335 565T381 536T449 457V558H619V3Q619 -75 589 -137T497 -237T343 -274Q217 -274 142 -215T51 -53H220Q228 -87 256 -106T331 -125Q384 -125 416 -95T449 3V101Q427 51 381 22T271 -7Q202 -7 148 27T62
127T30 279Q30 367 61 431T147 530T271 565Q335 565 381 536ZM271 415T238 379T204 279Q204 215 237 179T326 143Q380 143 414 180T449 279Q449 342 415 378T326 415Q271 415 238 379Z" />
<glyph unicode="h" glyph-name="h" horiz-adv-x="676" d="M509 564T565 500T622 324V0H451V304Q451 360 422 391T343 423Q291 423 261 390T230 296V0H59V740H230V456Q254 506 301 535T413 564Q509 564 565 500Z" />
<glyph unicode="i" glyph-name="i" horiz-adv-x="289" d="M43 754T71 779T145 805Q191 805 219 780T247 715Q247 677 219 652T145 626Q99 626 71 651T43 715Q43 754 71 779ZM230 558V0H59V558H230Z" />
<glyph unicode="j" glyph-name="j" horiz-adv-x="290" d="M100 626T72 651T44 715Q44 754 72 779T146 805Q192 805 220 780T248 715Q248 677 220 652T146 626Q100 626 72 651ZM-32 -119H10Q37 -119 49 -108T61 -69V558H233V-67Q233 -266 33 -266H-32V-119Z" />
<glyph unicode="k" glyph-name="k" horiz-adv-x="606" d="M397 0L230 237V0H59V740H230V334L397 558H598L373 279L603 0H397Z" />
<glyph unicode="l" glyph-name="l" horiz-adv-x="289" d="M230 740V0H59V740H230Z" />
<glyph unicode="m" glyph-name="m" horiz-adv-x="1058" d="M885 564T944 501T1003 324V0H833V304Q833 357 805 386T727 416Q676 416 647 385T617 296V0H446V304Q446 357 418 386T341 416Q290 416 260 385T230 296V0H59V558H230V463Q252 510 297 537T404 564Q468
564 517 535T591 450Q620 502 670 533T782 564Q885 564 944 501Z" />
<glyph unicode="n" glyph-name="n" horiz-adv-x="676" d="M509 564T565 500T622 324V0H451V304Q451 360 422 391T343 423Q291 423 261 390T230 296V0H59V558H230V456Q254 506 301 535T413 564Q509 564 565 500Z" />
<glyph unicode="o" glyph-name="o" horiz-adv-x="639" d="M403 565T468 531T571 431T609 279Q609 192 572 127T469 28T320 -7Q237 -7 171 27T68 127T30 279Q30 366 67 431T171 530T320 565Q403 565 468 531ZM271 417T238 382T204 279Q204 212 237 177T320 142Q369
142 402 177T435 279Q435 346 402 381T320 417Q271 417 238 382Z" />
<glyph unicode="p" glyph-name="p" horiz-adv-x="678" d="M476 565T530 531T616 432T648 279Q648 192 617 127T531 28T407 -7Q343 -7 297 22T230 101V-266H59V558H230V457Q251 507 297 536T407 565Q476 565 530 531ZM298 415T264 379T229 279Q229 217 263 180T352
143Q407 143 440 179T474 279Q474 343 441 379T352 415Q298 415 264 379Z" />
<glyph unicode="q" glyph-name="q" horiz-adv-x="678" d="M395 563T449 477V558H619V-266H449V90Q391 -6 283 -6Q213 -6 156 29T64 129T30 276Q30 359 64 424T156 526T283 563Q395 563 449 477ZM276 414T240 379T204 276Q204 210 239 177T326 143Q376 143 412
178T449 279Q449 344 413 379T326 414Q276 414 240 379Z" />
<glyph unicode="r" glyph-name="r" horiz-adv-x="435" d="M262 504T312 534T422 564V381H373Q305 381 268 352T230 254V0H59V558H230V453Q262 504 312 534Z" />
<glyph unicode="s" glyph-name="s" horiz-adv-x="555" d="M368 565T431 512T511 372H351Q344 406 320 425T258 445Q229 445 214 433T199 397Q199 371 226 358T313 332Q377 317 418 302T489 251T519 157Q519 109 493 72T418 14T302 -7Q189 -7 121 43T38 186H203Q207
150 233 131T302 112Q331 112 346 125T361 161Q361 190 334 202T244 229Q182 242 142 257T73 305T44 397Q44 472 101 518T262 565Q368 565 431 512Z" />
<glyph unicode="t" glyph-name="t" horiz-adv-x="412" d="M375 147V0H298Q200 0 146 48T91 209V414H16V558H91V695H262V558H374V414H262V206Q262 173 275 160T321 147H375Z" />
<glyph unicode="u" glyph-name="u" horiz-adv-x="673" d="M614 558V0H442V101Q418 52 371 23T260 -6Q164 -6 108 58T51 234V558H221V255Q221 198 250 167T330 135Q382 135 412 168T442 262V558H614Z" />
<glyph unicode="v" glyph-name="v" horiz-adv-x="632" d="M317 167L438 558H620L422 0H210L12 558H194L317 167Z" />
<glyph unicode="w" glyph-name="w" horiz-adv-x="878" d="M875 558L732 0H541L440 374L338 0H147L4 558H175L249 156L353 558H535L642 155L716 558H875Z" />
<glyph unicode="x" glyph-name="x" horiz-adv-x="605" d="M408 0L294 159L201 0H13L198 291L6 558H198L311 401L404 558H592L403 274L600 0H408Z" />
<glyph unicode="y" glyph-name="y" horiz-adv-x="634" d="M188 558L322 216L447 558H636L288 -266H100L231 21L-3 558H188Z" />
<glyph unicode="z" glyph-name="z" horiz-adv-x="490" d="M210 143H468V0H23V135L263 416H27V558H458V423L210 143Z" />
<glyph unicode="{" glyph-name="braceleft" horiz-adv-x="458" d="M309 350T309 234Q309 196 300 144Q290 80 290 39Q290 -56 328 -118T425 -204V-217H265Q240 -205 210 -176T157 -91T133 43Q133 82 143 146Q152 200 152 238Q152 278 130 307T53 342V402Q152 413
152 506Q152 544 143 598Q133 662 133 701Q133 779 156 834T210 919T265 961H425V948Q367 924 329 862T290 705Q290 664 300 602Q309 548 309 511Q309 453 282 419T198 373V371Q309 350 309 234Z" />
<glyph unicode="|" glyph-name="bar" horiz-adv-x="244" d="M208 -130H36V816H208V-130Z" />
<glyph unicode="}" glyph-name="braceright" horiz-adv-x="443" d="M207 384T180 414T153 496Q153 533 162 587Q172 649 172 690Q172 752 154 805T104 896T37 948V961H197Q222 949 252 920T305 835T329 701Q329 662 319 598Q309 538 309 506Q309 465 332 435T409
402V342Q356 341 333 310T309 238Q309 206 319 146Q329 82 329 43Q329 -35 306 -90T252 -175T197 -217H37V-204Q73 -189 104 -152T153 -62T172 54Q172 95 162 159Q153 211 153 249Q153 350 264 371V373Q207 384 180 414Z" />
<glyph unicode="~" glyph-name="asciitilde" horiz-adv-x="636" d="M257 426T284 416T343 387Q368 373 385 366T421 359Q448 359 462 375T482 427H611Q594 315 542 261T412 207Q380 207 354 216T293 245Q266 260 250 267T215 274Q189 274 174 258T153 206H25Q43
318 94 372T224 426Q257 426 284 416Z" />
<glyph unicode="&#xa0;" glyph-name="uni00A0" horiz-adv-x="200" />
<glyph unicode="&#xa1;" glyph-name="exclamdown" horiz-adv-x="403" d="M293 -178L272 311H127L106 -178H293ZM289 393V564H111V393H289Z" />
<glyph unicode="&#xa2;" glyph-name="cent" horiz-adv-x="581" d="M334 138T361 156T394 207H551Q544 119 484 65T334 2V-86H260V2Q153 13 92 79T30 258Q30 370 92 436T260 513V598H334V513Q423 504 483 451T551 308H394Q385 342 360 360T301 378Q252 378 223
347T194 257Q194 200 223 169T301 138Q334 138 361 156Z" />
<glyph unicode="&#xa3;" glyph-name="sterling" horiz-adv-x="644" d="M312 245T296 203T242 129H587V-5H75L54 78Q104 120 127 167T150 282V288H36V402H120Q97 481 97 542Q97 607 127 655T211 730T336 756Q450 756 514 693T587 529H429Q425 568 403 592T342 617Q304
617 283 593T261 523Q261 499 267 475T288 402H462V288H312V282Q312 245 296 203Z" />
<glyph unicode="&#xa4;" glyph-name="currency" horiz-adv-x="578" d="M499 315T462 267L514 215L451 151L388 214Q346 196 291 196Q238 196 190 215L127 151L63 215L118 269Q82 316 82 379Q82 444 119 489L63 544L127 608L194 541Q237 558 291 558Q344 558 385
542L451 608L514 544L460 491Q499 446 499 379Q499 315 462 267ZM323 296T345 316T367 377Q367 417 345 438T291 460Q258 460 237 439T215 377Q215 337 236 317T291 296Q323 296 345 316Z" />
<glyph unicode="&#xa5;" glyph-name="yen" horiz-adv-x="688" d="M530 426H630V313H471L444 261H630V148H431V0H259V148H59V261H246L219 313H59V426H160L14 707H210L346 392L482 707H676L530 426Z" />
<glyph unicode="&#xa6;" glyph-name="brokenbar" horiz-adv-x="372" d="M100 816H272V406H100V816ZM272 -130H100V282H272V-130Z" />
<glyph unicode="&#xa7;" glyph-name="section" horiz-adv-x="588" d="M483 79T503 42T523 -37Q523 -116 463 -164T296 -213Q193 -213 133 -159T64 -14H233Q239 -92 300 -92Q323 -92 336 -81T350 -46Q350 -24 336 -6T289 30T195 75Q117 108 74 152T31 258Q31 308
57 347T143 407Q105 437 85 474T65 554Q65 632 125 680T293 729Q396 729 455 675T524 530H355Q353 568 336 588T289 608Q266 608 252 597T238 562Q238 539 252 522T299 486T393 442Q472 406 515 363T558 258Q558 155 445 109Q483 79 503 42ZM332 180T354 202T376
258Q376 292 355 314T295 336Q257 336 236 314T214 258Q214 223 235 202T294 180Q332 180 354 202Z" />
<glyph unicode="&#xa8;" glyph-name="dieresis" horiz-adv-x="393" d="M23 724T43 745T95 766Q126 766 146 745T167 693Q167 663 147 643T95 622Q64 622 44 642T23 693Q23 724 43 745ZM226 724T246 745T297 766Q328 766 348 745T369 693Q369 663 349 643T297 622Q267
622 247 642T226 693Q226 724 246 745Z" />
<glyph unicode="&#xa9;" glyph-name="copyright" horiz-adv-x="779" d="M287 716T207 671T83 543T38 357Q38 252 82 170T207 42T390 -4Q493 -4 573 42T697 170T742 357Q742 461 698 543T573 670T390 716Q287 716 207 671ZM479 662T546 624T649 517T685 357Q685
266 649 196T546 88T390 49Q300 49 234 87T131 196T95 357Q95 448 131 517T233 624T390 662Q479 662 546 624ZM473 581T531 534T604 407H460Q452 435 433 451T386 467Q350 467 327 439T304 356Q304 302 327 273T386 244Q413 244 432 260T460 304H604Q590 225 532
178T394 131Q329 131 279 158T200 236T171 356Q171 425 199 476T278 554T394 581Q473 581 531 534Z" />
<glyph unicode="&#xaa;" glyph-name="ordfeminine" horiz-adv-x="469" d="M234 711T263 694T311 644V707H439V355H311V417Q292 383 263 366T190 349Q117 349 71 397T25 530Q25 614 71 662T189 711Q234 711 263 694ZM201 609T179 588T157 529Q157 492 178 472T233
452Q267 452 289 473T311 531Q311 567 289 588T233 609Q201 609 179 588Z" />
<glyph unicode="&#xab;" glyph-name="guillemotleft" horiz-adv-x="557" d="M130 120L45 295L130 470H287L201 295L287 120H130ZM357 120L273 295L357 470H515L428 295L515 120H357Z" />
<glyph unicode="&#xac;" glyph-name="logicalnot" horiz-adv-x="773" d="M713 442V180H542V313H31V442H713Z" />
<glyph unicode="&#xad;" glyph-name="uni00AD" horiz-adv-x="543" d="M703 422V280H262V422H703Z" />
<glyph unicode="&#xae;" glyph-name="registered" horiz-adv-x="811" d="M514 716T597 671T727 544T774 357Q774 252 728 170T598 42T406 -4Q298 -4 215 42T85 170T38 357Q38 462 84 543T214 670T406 716Q514 716 597 671ZM500 51T570 89T679 196T717 357Q717
449 679 518T571 625T406 663Q311 663 241 626T133 519T95 357Q95 265 133 196T241 89T406 51Q500 51 570 89ZM588 404T563 371T489 325L594 150H478L382 318H362V150H256V578H430Q509 578 548 541T588 448Q588 404 563 371ZM362 385H420Q479 385 479 433Q479 482
420 482H362V385Z" />
<glyph unicode="&#xaf;" glyph-name="overscore" horiz-adv-x="436" d="M418 746V631H18V746H418Z" />
<glyph unicode="&#xb0;" glyph-name="degree" horiz-adv-x="461" d="M325 709T380 661T436 530Q436 446 382 397T234 347Q141 347 83 397T25 530Q25 613 81 661T231 709Q325 709 380 661ZM200 618T179 596T157 528Q157 485 179 462T234 439Q265 439 285 462T305
528Q305 573 284 595T232 618Q200 618 179 596Z" />
<glyph unicode="&#xb1;" glyph-name="plusminus" horiz-adv-x="561" d="M363 356V250H536V95H25V250H198V356H25V511H198V631H363V511H536V356H363Z" />
<glyph unicode="&#xb2;" glyph-name="twosuperior" horiz-adv-x="392" d="M171 450H360V352H46V446L176 527Q230 562 230 599Q230 612 223 618T204 625Q172 625 167 576H40Q45 637 92 676T220 715Q293 715 329 684T365 609Q365 572 335 543T237 483L171 450Z" />
<glyph unicode="&#xb3;" glyph-name="threesuperior" horiz-adv-x="378" d="M266 715T306 687T347 611Q347 548 274 535V531Q316 521 335 501T354 449Q354 402 313 376T198 349Q107 349 67 380T20 473H154Q155 453 163 446T187 438Q220 438 220 472Q220 510 176
510H138V555H170Q212 555 212 594Q212 609 204 617T181 626Q152 626 147 588H25Q28 642 68 678T196 715Q266 715 306 687Z" />
<glyph unicode="&#xb4;" glyph-name="acute" horiz-adv-x="276" d="M259 701L18 598V714L259 830V701Z" />
<glyph unicode="&#xb5;" glyph-name="uni00B5" horiz-adv-x="718" d="M641 558V0H469V95Q447 48 402 21T297 -6Q271 -6 248 6V-266H78V558H248V265Q248 206 278 175T360 143Q410 143 439 174T469 263V558H641Z" />
<glyph unicode="&#xb6;" glyph-name="paragraph" horiz-adv-x="706" d="M628 0H491V573H420V0H283V273H260Q179 273 126 302T47 380T22 487Q22 545 47 594T125 672T260 702H628V0Z" />
<glyph unicode="&#xb7;" glyph-name="middot" horiz-adv-x="259" d="M217 401V230H40V401H217Z" />
<glyph unicode="&#xb8;" glyph-name="cedilla" horiz-adv-x="320" d="M223 -41T262 -68T302 -154Q302 -212 262 -239T163 -267H18V-177H145Q187 -177 187 -149Q187 -136 177 -129T145 -122H72V7H173V-43Q223 -41 262 -68Z" />
<glyph unicode="&#xb9;" glyph-name="onesuperior" horiz-adv-x="252" d="M25 604V704H216V352H88V604H25Z" />
<glyph unicode="&#xba;" glyph-name="ordmasculine" horiz-adv-x="456" d="M289 709T335 686T406 622T431 528Q431 476 406 435T335 370T228 346Q167 346 121 370T50 435T25 528Q25 580 50 621T121 686T228 709Q289 709 335 686ZM196 610T176 589T155 528Q155
489 175 468T228 446Q260 446 280 467T301 528Q301 568 281 589T228 610Q196 610 176 589Z" />
<glyph unicode="&#xbb;" glyph-name="guillemotright" horiz-adv-x="557" d="M138 295L50 470H209L292 295L209 120H50L138 295ZM365 295L278 470H436L520 295L436 120H278L365 295Z" />
<glyph unicode="&#xbc;" glyph-name="onequarter" horiz-adv-x="787" d="M642 707L265 0H97L475 707H642ZM49 604V704H240V352H112V604H49ZM761 63H721V0H592V63H397V130L547 352H721V134H761V63ZM599 265L518 137H599V265Z" />
<glyph unicode="&#xbd;" glyph-name="onehalf" horiz-adv-x="844" d="M645 709L260 0H93L478 709H645ZM113 604H50V704H241V352H113V604ZM585 97H774V-1H460V93L590 174Q644 209 644 246Q644 259 637 265T618 272Q586 272 581 223H454Q459 284 506 323T634 362Q707
362 743 331T779 256Q779 219 749 190T651 130L585 97Z" />
<glyph unicode="&#xbe;" glyph-name="threequarters" horiz-adv-x="901" d="M310 715T350 687T391 611Q391 548 318 535V531Q360 521 379 501T398 449Q398 402 357 376T242 349Q151 349 111 380T64 473H198Q199 453 207 446T231 438Q264 438 264 472Q264 510 220
510H182V555H214Q256 555 256 594Q256 609 248 617T225 626Q196 626 191 588H69Q72 642 112 678T240 715Q310 715 350 687ZM754 709L390 0H223L586 709H754ZM880 63H840V0H712V63H516V130L651 352H840V134H880V63ZM719 280L637 134H719V280Z" />
<glyph unicode="&#xbf;" glyph-name="questiondown" horiz-adv-x="519" d="M197 -194T134 -140T71 17Q71 112 132 166T297 222V311H458V112H391Q319 112 279 92T239 18Q239 -16 258 -35T309 -54Q345 -54 365 -33T386 22H547Q549 -38 522 -87T438 -165T303 -194Q197
-194 134 -140ZM288 393V564H466V393H288Z" />
<glyph unicode="&#xc0;" glyph-name="Agrave" horiz-adv-x="730" d="M497 129H232L188 0H8L267 702H464L723 0H541L497 129ZM453 259L365 519L276 259H453ZM461 863V747L220 850V979L461 863Z" />
<glyph unicode="&#xc1;" glyph-name="Aacute" horiz-adv-x="730" d="M497 129H232L188 0H8L267 702H464L723 0H541L497 129ZM453 259L365 519L276 259H453ZM509 850L268 747V863L509 979V850Z" />
<glyph unicode="&#xc2;" glyph-name="Acircumflex" horiz-adv-x="730" d="M497 129H232L188 0H8L267 702H464L723 0H541L497 129ZM453 259L365 519L276 259H453ZM366 834L211 748V861L366 945L521 861V748L366 834Z" />
<glyph unicode="&#xc3;" glyph-name="Atilde" horiz-adv-x="730" d="M497 129H232L188 0H8L267 702H464L723 0H541L497 129ZM453 259L365 519L276 259H453ZM322 908T340 901T380 881Q401 870 412 866T435 861Q472 861 479 908H565Q541 760 429 760Q406 760 388
767T346 787Q328 797 317 801T294 806Q257 806 250 759H164Q189 908 300 908Q322 908 340 901Z" />
<glyph unicode="&#xc4;" glyph-name="Adieresis" horiz-adv-x="730" d="M497 129H232L188 0H8L267 702H464L723 0H541L497 129ZM453 259L365 519L276 259H453ZM192 873T212 894T264 915Q295 915 315 894T336 842Q336 812 316 792T264 771Q233 771 213 791T192
842Q192 873 212 894ZM395 873T415 894T466 915Q497 915 517 894T538 842Q538 812 518 792T466 771Q436 771 416 791T395 842Q395 873 415 894Z" />
<glyph unicode="&#xc5;" glyph-name="Aring" horiz-adv-x="730" d="M497 129H232L188 0H8L267 702H464L723 0H541L497 129ZM453 259L365 519L276 259H453ZM417 991T452 958T487 869Q487 814 452 781T365 748Q313 748 279 781T244 869Q244 925 278 958T365 991Q417
991 452 958ZM343 922T328 908T313 869Q313 845 328 831T365 816Q388 816 402 830T417 869Q417 893 403 907T365 922Q343 922 328 908Z" />
<glyph unicode="&#xc6;" glyph-name="AE" horiz-adv-x="949" d="M650 571V426H881V296H650V137H911V0H478V121H250L189 0H3L365 707H911V571H650ZM478 251V570L316 251H478Z" />
<glyph unicode="&#xc7;" glyph-name="Ccedilla" horiz-adv-x="757" d="M517 714T605 643T720 451H539Q519 500 478 528T379 556Q304 556 258 501T212 354Q212 262 258 208T379 153Q436 153 477 181T539 257H720Q694 137 606 66T382 -6Q279 -6 201 39T81 167T38
354Q38 459 80 541T201 668T382 714Q517 714 605 643ZM484 -41T523 -68T563 -154Q563 -212 523 -239T424 -267H279V-177H406Q448 -177 448 -149Q448 -136 438 -129T406 -122H333V7H434V-43Q484 -41 523 -68Z" />
<glyph unicode="&#xc8;" glyph-name="Egrave" horiz-adv-x="537" d="M230 571V423H469V294H230V137H499V0H59V707H499V571H230ZM375 863V747L134 850V979L375 863Z" />
<glyph unicode="&#xc9;" glyph-name="Eacute" horiz-adv-x="537" d="M230 571V423H469V294H230V137H499V0H59V707H499V571H230ZM423 850L182 747V863L423 979V850Z" />
<glyph unicode="&#xca;" glyph-name="Ecircumflex" horiz-adv-x="537" d="M230 571V423H469V294H230V137H499V0H59V707H499V571H230ZM280 834L125 748V861L280 945L435 861V748L280 834Z" />
<glyph unicode="&#xcb;" glyph-name="Edieresis" horiz-adv-x="537" d="M230 571V423H469V294H230V137H499V0H59V707H499V571H230ZM106 873T126 894T178 915Q209 915 229 894T250 842Q250 812 230 792T178 771Q147 771 127 791T106 842Q106 873 126 894ZM309 873T329
894T380 915Q411 915 431 894T452 842Q452 812 432 792T380 771Q350 771 330 791T309 842Q309 873 329 894Z" />
<glyph unicode="&#xcc;" glyph-name="Igrave" horiz-adv-x="289" d="M230 707V0H59V707H230ZM241 863V747L0 850V979L241 863Z" />
<glyph unicode="&#xcd;" glyph-name="Iacute" horiz-adv-x="289" d="M230 707V0H59V707H230ZM289 850L48 747V863L289 979V850Z" />
<glyph unicode="&#xce;" glyph-name="Icircumflex" horiz-adv-x="289" d="M230 707V0H59V707H230ZM145 834L-10 748V861L145 945L300 861V748L145 834Z" />
<glyph unicode="&#xcf;" glyph-name="Idieresis" horiz-adv-x="289" d="M230 707V0H59V707H230ZM-28 873T-8 894T44 915Q75 915 95 894T116 842Q116 812 96 792T44 771Q13 771 -7 791T-28 842Q-28 873 -8 894ZM175 873T195 894T246 915Q277 915 297 894T318 842Q318
812 298 792T246 771Q216 771 196 791T175 842Q175 873 195 894Z" />
<glyph unicode="&#xd0;" glyph-name="Eth" horiz-adv-x="743" d="M450 707T533 663T660 539T705 355Q705 251 661 171T533 45T336 0H69V287H3V423H69V707H336Q450 707 533 663ZM421 153T476 206T532 355Q532 451 477 504T321 557H240V423H396V287H240V153H321Q421
153 476 206Z" />
<glyph unicode="&#xd1;" glyph-name="Ntilde" horiz-adv-x="746" d="M687 0H516L230 434V0H59V707H230L516 269V707H687V0ZM330 908T348 901T388 881Q409 870 420 866T443 861Q480 861 487 908H573Q549 760 437 760Q414 760 396 767T354 787Q336 797 325 801T302
806Q265 806 258 759H172Q197 908 308 908Q330 908 348 901Z" />
<glyph unicode="&#xd2;" glyph-name="Ograve" horiz-adv-x="789" d="M495 718T576 672T705 543T752 356Q752 252 705 169T576 40T395 -7Q296 -7 215 39T86 169T38 356Q38 460 85 542T214 671T395 718Q495 718 576 672ZM311 559T262 505T212 356Q212 263 261 208T395
153Q478 153 528 208T578 356Q578 449 529 504T395 559Q311 559 262 505ZM491 863V747L250 850V979L491 863Z" />
<glyph unicode="&#xd3;" glyph-name="Oacute" horiz-adv-x="789" d="M495 718T576 672T705 543T752 356Q752 252 705 169T576 40T395 -7Q296 -7 215 39T86 169T38 356Q38 460 85 542T214 671T395 718Q495 718 576 672ZM311 559T262 505T212 356Q212 263 261 208T395
153Q478 153 528 208T578 356Q578 449 529 504T395 559Q311 559 262 505ZM539 850L298 747V863L539 979V850Z" />
<glyph unicode="&#xd4;" glyph-name="Ocircumflex" horiz-adv-x="789" d="M495 718T576 672T705 543T752 356Q752 252 705 169T576 40T395 -7Q296 -7 215 39T86 169T38 356Q38 460 85 542T214 671T395 718Q495 718 576 672ZM311 559T262 505T212 356Q212 263 261
208T395 153Q478 153 528 208T578 356Q578 449 529 504T395 559Q311 559 262 505ZM396 834L241 748V861L396 945L551 861V748L396 834Z" />
<glyph unicode="&#xd5;" glyph-name="Otilde" horiz-adv-x="789" d="M495 718T576 672T705 543T752 356Q752 252 705 169T576 40T395 -7Q296 -7 215 39T86 169T38 356Q38 460 85 542T214 671T395 718Q495 718 576 672ZM311 559T262 505T212 356Q212 263 261 208T395
153Q478 153 528 208T578 356Q578 449 529 504T395 559Q311 559 262 505ZM352 908T370 901T410 881Q431 870 442 866T465 861Q502 861 509 908H595Q571 760 459 760Q436 760 418 767T376 787Q358 797 347 801T324 806Q287 806 280 759H194Q219 908 330 908Q352
908 370 901Z" />
<glyph unicode="&#xd6;" glyph-name="Odieresis" horiz-adv-x="789" d="M495 718T576 672T705 543T752 356Q752 252 705 169T576 40T395 -7Q296 -7 215 39T86 169T38 356Q38 460 85 542T214 671T395 718Q495 718 576 672ZM311 559T262 505T212 356Q212 263 261
208T395 153Q478 153 528 208T578 356Q578 449 529 504T395 559Q311 559 262 505ZM222 873T242 894T294 915Q325 915 345 894T366 842Q366 812 346 792T294 771Q263 771 243 791T222 842Q222 873 242 894ZM425 873T445 894T496 915Q527 915 547 894T568 842Q568
812 548 792T496 771Q466 771 446 791T425 842Q425 873 445 894Z" />
<glyph unicode="&#xd7;" glyph-name="multiply" horiz-adv-x="553" d="M414 105L274 245L136 106L25 216L163 355L28 490L142 603L276 469L408 602L520 493L387 358L528 217L414 105Z" />
<glyph unicode="&#xd8;" glyph-name="Oslash" horiz-adv-x="789" d="M662 601Q705 554 728 491T751 356Q751 252 704 169T575 40T394 -7Q333 -7 278 11T178 63L122 1H29L127 110Q84 158 61 221T37 356Q37 460 84 542T213 671T394 718Q456 718 511 700T611 648L667
710H760L662 601ZM211 285T240 236L502 527Q458 559 394 559Q310 559 261 505T211 356Q211 285 240 236ZM577 426T548 475L287 184Q332 153 394 153Q477 153 527 208T577 356Q577 426 548 475Z" />
<glyph unicode="&#xd9;" glyph-name="Ugrave" horiz-adv-x="697" d="M225 707V299Q225 229 256 192T348 155Q408 155 439 192T471 299V707H642V299Q642 199 603 131T497 28T344 -7Q259 -7 194 27T92 130T55 299V707H225ZM444 863V747L203 850V979L444 863Z" />
<glyph unicode="&#xda;" glyph-name="Uacute" horiz-adv-x="697" d="M225 707V299Q225 229 256 192T348 155Q408 155 439 192T471 299V707H642V299Q642 199 603 131T497 28T344 -7Q259 -7 194 27T92 130T55 299V707H225ZM492 850L251 747V863L492 979V850Z" />
<glyph unicode="&#xdb;" glyph-name="Ucircumflex" horiz-adv-x="697" d="M225 707V299Q225 229 256 192T348 155Q408 155 439 192T471 299V707H642V299Q642 199 603 131T497 28T344 -7Q259 -7 194 27T92 130T55 299V707H225ZM349 834L194 748V861L349 945L504
861V748L349 834Z" />
<glyph unicode="&#xdc;" glyph-name="Udieresis" horiz-adv-x="697" d="M225 707V299Q225 229 256 192T348 155Q408 155 439 192T471 299V707H642V299Q642 199 603 131T497 28T344 -7Q259 -7 194 27T92 130T55 299V707H225ZM175 873T195 894T247 915Q278 915 298
894T319 842Q319 812 299 792T247 771Q216 771 196 791T175 842Q175 873 195 894ZM378 873T398 894T449 915Q480 915 500 894T521 842Q521 812 501 792T449 771Q419 771 399 791T378 842Q378 873 398 894Z" />
<glyph unicode="&#xdd;" glyph-name="Yacute" horiz-adv-x="677" d="M670 707L425 235V0H253V235L8 707H204L340 419L476 707H670ZM483 850L242 747V863L483 979V850Z" />
<glyph unicode="&#xde;" glyph-name="Thorn" horiz-adv-x="619" d="M230 134V0H59V707H229V578H336Q462 578 528 517T594 354Q594 290 565 240T477 162T336 134H230ZM420 263T420 354Q420 447 317 447H230V263H317Q420 263 420 354Z" />
<glyph unicode="&#xdf;" glyph-name="germandbls" horiz-adv-x="727" d="M639 357T674 307T709 184Q709 130 684 87T611 18T501 -8Q394 -8 338 48T281 205H421Q424 174 440 158T485 141Q514 141 528 157T543 198Q543 224 528 243T474 285L325 368V435L345 447Q367
460 377 477T387 516Q387 550 367 572T312 594Q275 594 252 571T229 504L230 0H59V468Q59 750 332 750Q405 750 457 727T535 665T562 579Q562 536 543 505T477 449L557 403Q639 357 674 307Z" />
<glyph unicode="&#xe0;" glyph-name="agrave" horiz-adv-x="678" d="M335 565T381 536T449 457V558H619V0H449V101Q427 51 381 22T271 -7Q202 -7 148 27T62 127T30 279Q30 367 61 431T147 530T271 565Q335 565 381 536ZM271 415T238 379T204 279Q204 215 237 179T326
143Q380 143 414 180T449 279Q449 342 415 378T326 415Q271 415 238 379ZM421 714V598L180 701V830L421 714Z" />
<glyph unicode="&#xe1;" glyph-name="aacute" horiz-adv-x="678" d="M335 565T381 536T449 457V558H619V0H449V101Q427 51 381 22T271 -7Q202 -7 148 27T62 127T30 279Q30 367 61 431T147 530T271 565Q335 565 381 536ZM271 415T238 379T204 279Q204 215 237 179T326
143Q380 143 414 180T449 279Q449 342 415 378T326 415Q271 415 238 379ZM469 701L228 598V714L469 830V701Z" />
<glyph unicode="&#xe2;" glyph-name="acircumflex" horiz-adv-x="678" d="M335 565T381 536T449 457V558H619V0H449V101Q427 51 381 22T271 -7Q202 -7 148 27T62 127T30 279Q30 367 61 431T147 530T271 565Q335 565 381 536ZM271 415T238 379T204 279Q204 215
237 179T326 143Q380 143 414 180T449 279Q449 342 415 378T326 415Q271 415 238 379ZM326 685L171 599V712L326 796L481 712V599L326 685Z" />
<glyph unicode="&#xe3;" glyph-name="atilde" horiz-adv-x="678" d="M335 565T381 536T449 457V558H619V0H449V101Q427 51 381 22T271 -7Q202 -7 148 27T62 127T30 279Q30 367 61 431T147 530T271 565Q335 565 381 536ZM271 415T238 379T204 279Q204 215 237 179T326
143Q380 143 414 180T449 279Q449 342 415 378T326 415Q271 415 238 379ZM282 759T300 752T340 732Q361 721 372 717T395 712Q432 712 439 759H525Q501 611 389 611Q366 611 348 618T306 638Q288 648 277 652T254 657Q217 657 210 610H124Q149 759 260 759Q282
759 300 752Z" />
<glyph unicode="&#xe4;" glyph-name="adieresis" horiz-adv-x="678" d="M335 565T381 536T449 457V558H619V0H449V101Q427 51 381 22T271 -7Q202 -7 148 27T62 127T30 279Q30 367 61 431T147 530T271 565Q335 565 381 536ZM271 415T238 379T204 279Q204 215 237
179T326 143Q380 143 414 180T449 279Q449 342 415 378T326 415Q271 415 238 379ZM152 724T172 745T224 766Q255 766 275 745T296 693Q296 663 276 643T224 622Q193 622 173 642T152 693Q152 724 172 745ZM355 724T375 745T426 766Q457 766 477 745T498 693Q498
663 478 643T426 622Q396 622 376 642T355 693Q355 724 375 745Z" />
<glyph unicode="&#xe5;" glyph-name="aring" horiz-adv-x="678" d="M335 565T381 536T449 457V558H619V0H449V101Q427 51 381 22T271 -7Q202 -7 148 27T62 127T30 279Q30 367 61 431T147 530T271 565Q335 565 381 536ZM271 415T238 379T204 279Q204 215 237 179T326
143Q380 143 414 180T449 279Q449 342 415 378T326 415Q271 415 238 379ZM377 842T412 809T447 720Q447 665 412 632T325 599Q273 599 239 632T204 720Q204 776 238 809T325 842Q377 842 412 809ZM303 773T288 759T273 720Q273 696 288 682T325 667Q348 667 362
681T377 720Q377 744 363 758T325 773Q303 773 288 759Z" />
<glyph unicode="&#xe6;" glyph-name="ae" horiz-adv-x="1074" d="M1044 268T1040 248H625Q630 186 662 157T745 128Q789 128 817 146T854 198H1035Q1018 107 956 50T804 -7Q737 -7 689 21T619 102V0H449V101Q427 51 381 22T271 -7Q202 -7 148 27T62 127T30 279Q30
367 61 431T147 530T271 565Q335 565 381 536T449 457V558H619V457Q639 508 688 536T804 565Q876 565 930 531T1014 436T1044 294Q1044 268 1040 248ZM873 374T838 402T750 430Q700 430 666 404T625 320H871Q873 374 838 402ZM380 143T414 180T449 279Q449 342
415 378T326 415Q271 415 238 379T204 279Q204 215 237 179T326 143Q380 143 414 180Z" />
<glyph unicode="&#xe7;" glyph-name="ccedilla" horiz-adv-x="614" d="M419 565T492 506T584 342H403Q395 378 370 398T307 418Q262 418 233 383T204 279Q204 211 233 176T307 140Q345 140 370 160T403 216H584Q565 112 492 53T311 -7Q229 -7 166 27T66 127T30
279Q30 367 65 431T165 530T311 565Q419 565 492 506ZM383 -41T422 -68T462 -154Q462 -212 422 -239T323 -267H178V-177H305Q347 -177 347 -149Q347 -136 337 -129T305 -122H232V7H333V-43Q383 -41 422 -68Z" />
<glyph unicode="&#xe8;" glyph-name="egrave" horiz-adv-x="619" d="M589 273T584 248H197Q200 185 229 158T303 130Q341 130 366 149T399 198H580Q569 139 532 93T438 20T311 -7Q229 -7 166 27T66 127T30 279Q30 367 65 431T165 530T311 565Q394 565 457 531T554
436T589 294Q589 273 584 248ZM417 375T387 402T311 430Q264 430 233 402T198 320H416Q417 375 387 402ZM406 714V598L165 701V830L406 714Z" />
<glyph unicode="&#xe9;" glyph-name="eacute" horiz-adv-x="619" d="M589 273T584 248H197Q200 185 229 158T303 130Q341 130 366 149T399 198H580Q569 139 532 93T438 20T311 -7Q229 -7 166 27T66 127T30 279Q30 367 65 431T165 530T311 565Q394 565 457 531T554
436T589 294Q589 273 584 248ZM417 375T387 402T311 430Q264 430 233 402T198 320H416Q417 375 387 402ZM454 701L213 598V714L454 830V701Z" />
<glyph unicode="&#xea;" glyph-name="ecircumflex" horiz-adv-x="619" d="M589 273T584 248H197Q200 185 229 158T303 130Q341 130 366 149T399 198H580Q569 139 532 93T438 20T311 -7Q229 -7 166 27T66 127T30 279Q30 367 65 431T165 530T311 565Q394 565 457
531T554 436T589 294Q589 273 584 248ZM417 375T387 402T311 430Q264 430 233 402T198 320H416Q417 375 387 402ZM311 685L156 599V712L311 796L466 712V599L311 685Z" />
<glyph unicode="&#xeb;" glyph-name="edieresis" horiz-adv-x="619" d="M589 273T584 248H197Q200 185 229 158T303 130Q341 130 366 149T399 198H580Q569 139 532 93T438 20T311 -7Q229 -7 166 27T66 127T30 279Q30 367 65 431T165 530T311 565Q394 565 457 531T554
436T589 294Q589 273 584 248ZM417 375T387 402T311 430Q264 430 233 402T198 320H416Q417 375 387 402ZM137 724T157 745T209 766Q240 766 260 745T281 693Q281 663 261 643T209 622Q178 622 158 642T137 693Q137 724 157 745ZM340 724T360 745T411 766Q442 766
462 745T483 693Q483 663 463 643T411 622Q381 622 361 642T340 693Q340 724 360 745Z" />
<glyph unicode="&#xec;" glyph-name="igrave" horiz-adv-x="327" d="M249 558V0H78V558H249ZM260 714V598L19 701V830L260 714Z" />
<glyph unicode="&#xed;" glyph-name="iacute" horiz-adv-x="327" d="M249 558V0H78V558H249ZM307 701L66 598V714L307 830V701Z" />
<glyph unicode="&#xee;" glyph-name="icircumflex" horiz-adv-x="327" d="M249 558V0H78V558H249ZM420 685L265 599V712L420 796L575 712V599L420 685Z" />
<glyph unicode="&#xef;" glyph-name="idieresis" horiz-adv-x="327" d="M249 558V0H78V558H249ZM246 724T266 745T318 766Q349 766 369 745T390 693Q390 663 370 643T318 622Q287 622 267 642T246 693Q246 724 266 745ZM449 724T469 745T520 766Q551 766 571 745T592
693Q592 663 572 643T520 622Q490 622 470 642T449 693Q449 724 469 745Z" />
<glyph unicode="&#xf0;" glyph-name="eth" horiz-adv-x="644" d="M547 586T580 497T614 315Q614 213 576 141T473 31T327 -6Q245 -6 177 30T70 132T30 285Q30 370 66 433T165 530T307 564Q342 564 374 550T428 508Q406 572 369 627L261 594V653L332 675Q300 711
266 740H416L447 710L536 737V678L487 663Q547 586 580 497ZM375 142T407 177T439 279Q439 347 405 381T324 416Q274 416 240 383T205 283Q205 215 241 179T327 142Q375 142 407 177Z" />
<glyph unicode="&#xf1;" glyph-name="ntilde" horiz-adv-x="676" d="M509 564T565 500T622 324V0H451V304Q451 360 422 391T343 423Q291 423 261 390T230 296V0H59V558H230V456Q254 506 301 535T413 564Q509 564 565 500ZM297 759T315 752T355 732Q376 721 387
717T410 712Q447 712 454 759H540Q516 611 404 611Q381 611 363 618T321 638Q303 648 292 652T269 657Q232 657 225 610H139Q164 759 275 759Q297 759 315 752Z" />
<glyph unicode="&#xf2;" glyph-name="ograve" horiz-adv-x="639" d="M403 565T468 531T571 431T609 279Q609 192 572 127T469 28T320 -7Q237 -7 171 27T68 127T30 279Q30 366 67 431T171 530T320 565Q403 565 468 531ZM271 417T238 382T204 279Q204 212 237 177T320
142Q369 142 402 177T435 279Q435 346 402 381T320 417Q271 417 238 382ZM416 714V598L175 701V830L416 714Z" />
<glyph unicode="&#xf3;" glyph-name="oacute" horiz-adv-x="639" d="M403 565T468 531T571 431T609 279Q609 192 572 127T469 28T320 -7Q237 -7 171 27T68 127T30 279Q30 366 67 431T171 530T320 565Q403 565 468 531ZM271 417T238 382T204 279Q204 212 237 177T320
142Q369 142 402 177T435 279Q435 346 402 381T320 417Q271 417 238 382ZM463 701L222 598V714L463 830V701Z" />
<glyph unicode="&#xf4;" glyph-name="ocircumflex" horiz-adv-x="639" d="M403 565T468 531T571 431T609 279Q609 192 572 127T469 28T320 -7Q237 -7 171 27T68 127T30 279Q30 366 67 431T171 530T320 565Q403 565 468 531ZM271 417T238 382T204 279Q204 212 237
177T320 142Q369 142 402 177T435 279Q435 346 402 381T320 417Q271 417 238 382ZM320 685L165 599V712L320 796L475 712V599L320 685Z" />
<glyph unicode="&#xf5;" glyph-name="otilde" horiz-adv-x="639" d="M403 565T468 531T571 431T609 279Q609 192 572 127T469 28T320 -7Q237 -7 171 27T68 127T30 279Q30 366 67 431T171 530T320 565Q403 565 468 531ZM271 417T238 382T204 279Q204 212 237 177T320
142Q369 142 402 177T435 279Q435 346 402 381T320 417Q271 417 238 382ZM277 759T295 752T335 732Q356 721 367 717T390 712Q427 712 434 759H520Q496 611 384 611Q361 611 343 618T301 638Q283 648 272 652T249 657Q212 657 205 610H119Q144 759 255 759Q277
759 295 752Z" />
<glyph unicode="&#xf6;" glyph-name="odieresis" horiz-adv-x="639" d="M403 565T468 531T571 431T609 279Q609 192 572 127T469 28T320 -7Q237 -7 171 27T68 127T30 279Q30 366 67 431T171 530T320 565Q403 565 468 531ZM271 417T238 382T204 279Q204 212 237
177T320 142Q369 142 402 177T435 279Q435 346 402 381T320 417Q271 417 238 382ZM147 724T167 745T219 766Q250 766 270 745T291 693Q291 663 271 643T219 622Q188 622 168 642T147 693Q147 724 167 745ZM350 724T370 745T421 766Q452 766 472 745T493 693Q493
663 473 643T421 622Q391 622 371 642T350 693Q350 724 370 745Z" />
<glyph unicode="&#xf7;" glyph-name="divide" horiz-adv-x="561" d="M368 665V494H191V665H368ZM536 428V273H25V428H536ZM368 208V36H191V208H368Z" />
<glyph unicode="&#xf8;" glyph-name="oslash" horiz-adv-x="628" d="M535 475Q603 398 603 279Q603 192 566 127T463 28T314 -7Q213 -7 140 43L100 0H17L93 83Q24 162 24 279Q24 366 61 431T165 530T314 565Q416 565 489 515L528 558H611L535 475ZM198 238T210
211L380 396Q352 417 314 417Q265 417 232 382T198 279Q198 238 210 211ZM429 319T417 346L248 162Q275 142 314 142Q363 142 396 177T429 279Q429 319 417 346Z" />
<glyph unicode="&#xf9;" glyph-name="ugrave" horiz-adv-x="673" d="M614 558V0H442V101Q418 52 371 23T260 -6Q164 -6 108 58T51 234V558H221V255Q221 198 250 167T330 135Q382 135 412 168T442 262V558H614ZM428 714V598L187 701V830L428 714Z" />
<glyph unicode="&#xfa;" glyph-name="uacute" horiz-adv-x="673" d="M614 558V0H442V101Q418 52 371 23T260 -6Q164 -6 108 58T51 234V558H221V255Q221 198 250 167T330 135Q382 135 412 168T442 262V558H614ZM476 701L235 598V714L476 830V701Z" />
<glyph unicode="&#xfb;" glyph-name="ucircumflex" horiz-adv-x="673" d="M614 558V0H442V101Q418 52 371 23T260 -6Q164 -6 108 58T51 234V558H221V255Q221 198 250 167T330 135Q382 135 412 168T442 262V558H614ZM333 685L178 599V712L333 796L488 712V599L333 685Z" />
<glyph unicode="&#xfc;" glyph-name="udieresis" horiz-adv-x="673" d="M614 558V0H442V101Q418 52 371 23T260 -6Q164 -6 108 58T51 234V558H221V255Q221 198 250 167T330 135Q382 135 412 168T442 262V558H614ZM159 724T179 745T231 766Q262 766 282 745T303
693Q303 663 283 643T231 622Q200 622 180 642T159 693Q159 724 179 745ZM362 724T382 745T433 766Q464 766 484 745T505 693Q505 663 485 643T433 622Q403 622 383 642T362 693Q362 724 382 745Z" />
<glyph unicode="&#xfd;" glyph-name="yacute" horiz-adv-x="634" d="M188 558L322 216L447 558H636L288 -266H100L231 21L-3 558H188ZM460 701L219 598V714L460 830V701Z" />
<glyph unicode="&#xfe;" glyph-name="thorn" horiz-adv-x="678" d="M465 563T523 527T614 425T648 276Q648 193 615 129T523 30T395 -6Q287 -6 230 90V-266H59V740H230V477Q284 563 395 563Q465 563 523 527ZM303 414T267 379T230 279Q230 213 266 178T353 143Q403
143 438 176T474 276Q474 342 439 378T353 414Q303 414 267 379Z" />
<glyph unicode="&#xff;" glyph-name="ydieresis" horiz-adv-x="634" d="M188 558L322 216L447 558H636L288 -266H100L231 21L-3 558H188ZM144 724T164 745T216 766Q247 766 267 745T288 693Q288 663 268 643T216 622Q185 622 165 642T144 693Q144 724 164 745ZM347
724T367 745T418 766Q449 766 469 745T490 693Q490 663 470 643T418 622Q388 622 368 642T347 693Q347 724 367 745Z" />
<glyph unicode="&#x2013;" glyph-name="endash" horiz-adv-x="658" d="M606 422V280H51V422H606Z" />
<glyph unicode="&#x2014;" glyph-name="emdash" horiz-adv-x="893" d="M842 422V280H51V422H842Z" />
<glyph unicode="&#x2018;" glyph-name="quoteleft" horiz-adv-x="241" d="M45 632T45 691Q45 759 81 800T186 842V779Q133 779 133 711V696H197V572H66Q45 632 45 691Z" />
<glyph unicode="&#x2019;" glyph-name="quoteright" horiz-adv-x="241" d="M196 785T196 724Q196 655 161 614T57 572V636Q109 636 109 703V719H46V842H177Q196 785 196 724Z" />
<glyph unicode="&#x201a;" glyph-name="quotesinglbase" horiz-adv-x="242" d="M199 48T199 -20Q199 -89 163 -134T49 -179V-116Q76 -116 88 -104T101 -58V-48H28V106H169Q199 48 199 -20Z" />
<glyph unicode="&#x201c;" glyph-name="quotedblleft" horiz-adv-x="432" d="M45 632T45 691Q45 759 81 800T186 842V779Q133 779 133 711V696H197V572H66Q45 632 45 691ZM235 633T235 691Q235 759 270 800T375 842V779Q323 779 323 711V696H386V572H255Q235 633
235 691Z" />
<glyph unicode="&#x201d;" glyph-name="quotedblright" horiz-adv-x="432" d="M196 785T196 724Q196 655 161 614T57 572V636Q109 636 109 703V719H46V842H177Q196 785 196 724ZM387 779T387 724Q387 655 351 614T246 572V636Q299 636 299 703V719H235V842H366Q387
779 387 724Z" />
<glyph unicode="&#x201e;" glyph-name="quotedblbase" horiz-adv-x="432" d="M196 66T196 5Q196 -64 161 -105T57 -147V-83Q109 -83 109 -16V0H46V123H177Q196 66 196 5ZM387 60T387 5Q387 -64 351 -105T246 -147V-83Q299 -83 299 -16V0H235V123H366Q387 60 387 5Z" />
<glyph unicode="&#x<?php print date("Y") ?>;" glyph-name="bullet" horiz-adv-x="466" d="M83 375T103 410T157 465T233 485Q275 485 309 465T364 410T384 333Q384 292 364 258T310 204T233 184Q192 184 158 203T103 257T83 333Q83 375 103 410Z" />
<glyph unicode="&#x2039;" glyph-name="guilsinglleft" horiz-adv-x="337" d="M130 120L45 295L130 470H287L201 295L287 120H130Z" />
<glyph unicode="&#x203a;" glyph-name="guilsinglright" horiz-adv-x="337" d="M138 295L50 470H209L292 295L209 120H50L138 295Z" />
</font>
</defs>
</svg>
